<?xml version="1.0" standalone="no"?>
<!DOCTYPE svg PUBLIC "-//W3C//DTD SVG 1.1//EN" "http://www.w3.org/Graphics/SVG/1.1/DTD/svg11.dtd" >
<svg xmlns="http://www.w3.org/2000/svg" xmlns:xlink="http://www.w3.org/1999/xlink" version="1.1">
<metadata>
Created by FontForge 20200314 at Thu Feb  7 22:01:07 2002
 By Unknown
Copyright 1987, 1991, 1994 , 2002Adobe Systems Incorporated. All Rights Reserved. Revue is a trademark of Esselte Pendaflex Corporation in the USA, of Letraset Canada Ltd. in Canada, and of Esselte Letraset Ltd. elsewhere.
</metadata>
<defs>
<font id="RevueStd" horiz-adv-x="620" >
  <font-face 
    font-family="Revue Std"
    font-weight="700"
    font-stretch="normal"
    units-per-em="1000"
    panose-1="0 0 8 0 0 0 0 0 0 0"
    ascent="817"
    descent="-183"
    x-height="604"
    cap-height="817"
    bbox="-184 -319 1733 1068"
    underline-thickness="50"
    underline-position="-100"
    stemh="163"
    stemv="192"
    unicode-range="U+0020-FB02"
  />
<missing-glyph horiz-adv-x="500" 
d="M0 0v700h500v-700h-500zM250 395l170 255h-340zM280 350l170 -255v510zM80 50h340l-170 255zM50 605v-510l170 255z" />
    <glyph glyph-name="fi" unicode="fi" 
d="M67 446h-42v158h42c-10 126 35 213 185 213h194l48 -163h-163c-42 0 -76 7 -72 -50h307v-604h-192v446h-115v-446h-192v446z" />
    <glyph glyph-name="fl" unicode="fl" 
d="M67 446h-42v158h42c-10 126 35 213 185 213h314v-817h-192v654h-43c-42 0 -76 7 -72 -50h91l-48 -158h-43v-446h-192v446z" />
    <glyph glyph-name=".notdef" horiz-adv-x="500" 
d="M0 0v700h500v-700h-500zM250 395l170 255h-340zM280 350l170 -255v510zM80 50h340l-170 255zM50 605v-510l170 255z" />
    <glyph glyph-name="space" unicode=" " horiz-adv-x="350" 
 />
    <glyph glyph-name="exclam" unicode="!" horiz-adv-x="400" 
d="M305 817v-583h-211v583h211zM305 184v-184h-211v184h211z" />
    <glyph glyph-name="quotedbl" unicode="&#x22;" horiz-adv-x="333" 
d="M199 546v271h120v-271h-120zM16 546v271h120v-271h-120z" />
    <glyph glyph-name="numbersign" unicode="#" horiz-adv-x="787" 
d="M253 0h-121l39 223h-119v119h141l27 141h-126v119h144l40 219h120l-40 -219h138l40 219h121l-40 -219h118v-119h-138l-26 -141h122v-119h-143l-40 -223h-120l39 223h-137zM313 342h138l26 141h-138z" />
    <glyph glyph-name="dollar" unicode="$" horiz-adv-x="600" 
d="M316 549l149 -165c51 -56 101 -114 101 -195c0 -67 -35 -171 -181 -186v-101h-178v98h-110l-50 184h194c21 0 79 -5 79 27c0 23 -20 41 -35 57l-145 164c-50 57 -100 115 -100 196c0 65 33 164 167 185v87h178v-83h105l50 -184h-180c-21 0 -79 5 -79 -27
c0 -23 20 -41 35 -57z" />
    <glyph glyph-name="percent" unicode="%" horiz-adv-x="1160" 
d="M909 -18c-154 0 -227 183 -227 313c0 63 18 122 73 159c45 31 103 34 154 34s109 -3 154 -34c55 -37 73 -96 73 -159c0 -130 -73 -313 -227 -313zM909 108c60 0 81 142 81 182c0 55 -26 82 -81 82s-81 -27 -81 -82c0 -40 21 -182 81 -182zM251 329
c-154 0 -227 183 -227 313c0 63 18 122 73 159c45 31 103 34 154 34s109 -3 154 -34c55 -37 73 -96 73 -159c0 -130 -73 -313 -227 -313zM251 455c60 0 81 142 81 182c0 55 -26 82 -81 82s-81 -27 -81 -82c0 -40 21 -182 81 -182zM768 817l-277 -817h-116l277 817h116z" />
    <glyph glyph-name="ampersand" unicode="&#x26;" horiz-adv-x="800" 
d="M751 533v-184h-47v-349h-388c-224 0 -277 107 -277 200c0 104 63 186 144 244c-58 50 -108 104 -108 184c0 90 48 189 239 189h272l50 -184h-220c-71 0 -100 0 -100 -38c0 -43 72 -92 103 -114l67 -51c-62 -29 -206 -117 -206 -197c0 -49 55 -49 93 -49h123v349h255z" />
    <glyph glyph-name="quoteright" unicode="&#x2019;" horiz-adv-x="350" 
d="M299 817l-82 -277h-187l82 277h187z" />
    <glyph glyph-name="parenleft" unicode="(" horiz-adv-x="520" 
d="M475 -149l-181 -87c-108 171 -163 351 -163 549c0 192 55 354 156 522l183 -87c-72 -138 -124 -288 -124 -441c0 -157 55 -315 129 -456z" />
    <glyph glyph-name="parenright" unicode=")" horiz-adv-x="520" 
d="M226 -236l-181 87c74 141 129 299 129 456c0 153 -52 303 -124 441l183 87c101 -168 156 -330 156 -522c0 -198 -55 -378 -163 -549z" />
    <glyph glyph-name="asterisk" unicode="*" horiz-adv-x="480" 
d="M303 817l-14 -132l115 57l35 -118l-114 -25l79 -85l-104 -76l-61 98l-59 -98l-104 76l77 85l-113 25l36 118l114 -57l-15 132h128z" />
    <glyph glyph-name="plus" unicode="+" horiz-adv-x="727" 
d="M665 278h-242v-264h-118v264h-244v112h244v244h118v-244h242v-112z" />
    <glyph glyph-name="comma" unicode="," horiz-adv-x="300" 
d="M261 182l-82 -277h-187l82 277h187z" />
    <glyph glyph-name="hyphen" unicode="-" horiz-adv-x="320" 
d="M321 429v-158h-322v158h322z" />
    <glyph glyph-name="period" unicode="." horiz-adv-x="300" 
d="M240 184v-184h-180v184h180z" />
    <glyph glyph-name="slash" unicode="/" horiz-adv-x="500" 
d="M507 817l-349 -1025h-166l349 1025h166z" />
    <glyph glyph-name="zero" unicode="0" horiz-adv-x="780" 
d="M390 -18c-248 0 -359 321 -359 526c0 160 53 327 359 327s359 -167 359 -327c0 -205 -111 -526 -359 -526zM390 184c86 0 136 205 136 308c0 96 -36 152 -136 152s-136 -56 -136 -152c0 -103 50 -308 136 -308z" />
    <glyph glyph-name="one" unicode="1" horiz-adv-x="420" 
d="M40 817h298v-817h-214v633h-134z" />
    <glyph glyph-name="two" unicode="2" horiz-adv-x="580" 
d="M72 817h256c154 0 195 -94 195 -163s-31 -122 -61 -181l-148 -289h231l-50 -184h-515l277 538c8 16 24 43 24 61c0 40 -54 33 -80 34h-179z" />
    <glyph glyph-name="three" unicode="3" horiz-adv-x="600" 
d="M67 817h235c191 0 239 -99 239 -189c0 -81 -50 -135 -113 -192c75 -64 138 -129 138 -234c0 -83 -51 -202 -231 -202h-281l-50 184h209c35 0 110 -7 110 48c0 66 -142 160 -195 198l67 51c31 22 103 71 103 114c0 38 -29 38 -100 38h-181z" />
    <glyph glyph-name="four" unicode="4" horiz-adv-x="640" 
d="M368 362v155h178v-155h81v-184h-81v-178h-178v178h-352v163l205 476h226l-198 -455h119z" />
    <glyph glyph-name="five" unicode="5" horiz-adv-x="600" 
d="M195 378h-142l24 439h400l50 -184h-257l-4 -83h63c186 0 231 -115 231 -220c0 -78 -31 -330 -459 -330l-50 184c227 0 286 71 286 126c0 76 -89 68 -142 68z" />
    <glyph glyph-name="six" unicode="6" horiz-adv-x="660" 
d="M269 817h248c-6 -8 -131 -182 -175 -271c164 -2 303 -97 303 -272c0 -143 -79 -292 -318 -292c-206 0 -303 113 -303 281c0 196 136 398 245 554zM293 371h-31c-14 -29 -23 -62 -23 -94c0 -58 35 -107 96 -107c57 0 95 39 95 96c0 77 -70 105 -137 105z" />
    <glyph glyph-name="seven" unicode="7" horiz-adv-x="540" 
d="M56 817h501l-250 -817h-223l195 633h-273z" />
    <glyph glyph-name="eight" unicode="8" horiz-adv-x="680" 
d="M340 323c-31 -23 -86 -65 -86 -107c0 -40 55 -49 86 -49s86 9 86 49c0 42 -55 84 -86 107zM340 537c23 17 62 46 62 81s-36 42 -64 42s-64 -7 -64 -42s39 -64 66 -81zM180 433c-68 56 -121 105 -121 199c0 77 20 203 281 203s281 -126 281 -203c0 -94 -53 -143 -121 -199
c76 -60 141 -127 141 -231c0 -91 -27 -220 -301 -220s-301 129 -301 220c0 104 65 171 141 231z" />
    <glyph glyph-name="nine" unicode="9" horiz-adv-x="660" 
d="M150 0l-50 184c82 6 180 13 243 81c-214 35 -332 149 -332 314c0 115 71 256 304 256c238 0 329 -122 329 -316c0 -251 -167 -538 -494 -519zM416 442c8 28 13 59 13 88c0 65 -37 112 -106 112c-49 0 -89 -25 -89 -76c0 -84 114 -114 182 -124z" />
    <glyph glyph-name="colon" unicode=":" horiz-adv-x="300" 
d="M240 604v-184h-180v184h180zM240 184v-184h-180v184h180z" />
    <glyph glyph-name="semicolon" unicode=";" horiz-adv-x="300" 
d="M261 182l-82 -277h-187l82 277h187zM258 604v-184h-180v184h180z" />
    <glyph glyph-name="less" unicode="&#x3c;" horiz-adv-x="727" 
d="M664 -1l-600 276v116l599 277v-121l-485 -212v-3l486 -213v-120z" />
    <glyph glyph-name="equal" unicode="=" horiz-adv-x="727" 
d="M665 412h-604v112h604v-112zM665 144h-604v112h604v-112z" />
    <glyph glyph-name="greater" unicode="&#x3e;" horiz-adv-x="727" 
d="M64 668l600 -277v-116l-599 -276v120l485 213v3l-486 212v121z" />
    <glyph glyph-name="question" unicode="?" horiz-adv-x="640" 
d="M96 817h245c167 0 249 -110 249 -229c0 -207 -252 -310 -237 -354h-212v59c0 50 55 95 111 141c55 46 110 93 110 145c0 61 -88 54 -129 54h-184zM352 184v-184h-211v184h211z" />
    <glyph glyph-name="at" unicode="@" horiz-adv-x="1078" 
d="M730 -15l25 -83c-84 -36 -147 -47 -246 -47c-313 0 -458 202 -458 405c0 255 207 475 530 475c279 0 446 -171 446 -378c0 -181 -135 -287 -272 -287c-68 0 -118 37 -126 102h-4c-40 -59 -103 -102 -180 -102c-90 0 -163 65 -163 171c0 159 132 288 324 288
c64 0 141 -15 177 -34l-40 -219c-14 -77 -2 -109 36 -110c55 -1 139 52 139 186c0 162 -133 296 -352 296c-180 0 -402 -143 -402 -376c0 -203 152 -329 364 -329c70 0 146 14 202 42zM615 322l19 93c-11 3 -31 6 -49 6c-86 0 -153 -68 -153 -148c0 -46 21 -79 70 -79
c48 0 98 57 113 128z" />
    <glyph glyph-name="A" unicode="A" horiz-adv-x="760" 
d="M692 608v-608h-214v259h-234c1 -92 35 -181 82 -259l-174 -115c-79 119 -127 262 -127 406c0 142 45 290 147 392c114 115 247 134 401 134h105l50 -184h-168c-229 0 -268 -120 -295 -190h213v165h214z" />
    <glyph glyph-name="B" unicode="B" horiz-adv-x="780" 
d="M467 0h-394v608h214v-424h123c38 0 93 0 93 49c0 80 -144 168 -206 197l67 51c31 22 103 71 103 114c0 38 -29 38 -100 38h-334l50 184h386c191 0 239 -99 239 -189c0 -80 -50 -134 -108 -184c81 -58 144 -140 144 -244c0 -93 -53 -200 -277 -200z" />
    <glyph glyph-name="C" unicode="C" horiz-adv-x="580" 
d="M581 184l-50 -184h-37c-276 0 -468 234 -468 497c0 165 83 320 327 320h167l50 -184h-167c-42 0 -158 0 -158 -155c0 -164 123 -306 336 -294z" />
    <glyph glyph-name="D" unicode="D" horiz-adv-x="780" 
d="M247 0h-174v608h214v-424c147 7 251 148 251 294c0 155 -116 155 -158 155h-347l50 184h347c244 0 327 -155 327 -320c0 -308 -238 -497 -510 -497z" />
    <glyph glyph-name="E" unicode="E" horiz-adv-x="640" 
d="M563 817l50 -184h-329v-121h299l-50 -184h-249v-144h351l-50 -184h-515v817h493z" />
    <glyph glyph-name="F" unicode="F" horiz-adv-x="600" 
d="M554 817l50 -184h-320v-131h289l-50 -184h-239v-202c0 -39 0 -79 13 -116l-194 -124c-28 56 -33 118 -33 180v761h484z" />
    <glyph glyph-name="G" unicode="G" horiz-adv-x="760" 
d="M496 184v191h-81v184h295v-559h-174c-272 0 -510 189 -510 497c0 165 83 320 327 320h297l50 -184h-297c-42 0 -158 0 -158 -155c0 -146 104 -287 251 -294z" />
    <glyph glyph-name="H" unicode="H" horiz-adv-x="800" 
d="M726 817v-817h-214v375h-225v-259c0 -39 0 -79 13 -116l-194 -124c-28 56 -33 118 -33 180v761h214v-258h225v258h214z" />
    <glyph glyph-name="I" unicode="I" horiz-adv-x="360" 
d="M287 817v-817h-214v817h214z" />
    <glyph glyph-name="J" unicode="J" horiz-adv-x="460" 
d="M58 817h328v-627c0 -237 -73 -318 -305 -416l-86 167c149 70 177 110 177 258v434h-164z" />
    <glyph glyph-name="K" unicode="K" horiz-adv-x="720" 
d="M284 817v-817h-214v817h214zM720 817l-195 -360l234 -457h-255l-218 449l193 368h241z" />
    <glyph glyph-name="L" unicode="L" horiz-adv-x="540" 
d="M284 817v-633h281l-50 -184h-445v817h214z" />
    <glyph glyph-name="M" unicode="M" horiz-adv-x="900" 
d="M829 817v-817h-214v494h-2l-165 -220l-161 220h-2v-494h-214v817h203l174 -240l178 240h203z" />
    <glyph glyph-name="N" unicode="N" horiz-adv-x="800" 
d="M728 817v-817h-214v241l-226 275h-2v-516h-214v817h204l238 -278v278h214z" />
    <glyph glyph-name="O" unicode="O" horiz-adv-x="800" 
d="M400 -18c-252 0 -372 311 -372 528c0 177 85 325 372 325s372 -148 372 -325c0 -217 -120 -528 -372 -528zM400 175c81 0 149 177 149 325c0 109 -44 144 -149 144s-149 -35 -149 -144c0 -148 68 -325 149 -325z" />
    <glyph glyph-name="P" unicode="P" horiz-adv-x="700" 
d="M287 181v-181h-214v608h214v-216c60 31 177 105 177 179c0 61 -61 61 -105 62h-326l50 184h332c202 0 268 -113 268 -225c0 -126 -90 -281 -396 -411z" />
    <glyph glyph-name="Q" unicode="Q" horiz-adv-x="800" 
d="M772 184l-50 -184h-323c-226 0 -372 237 -372 510c0 177 85 325 372 325s368 -148 368 -325c0 -116 -38 -234 -107 -326h112zM397 191c101 0 151 231 151 309c0 109 -44 144 -149 144c-109 0 -153 -35 -153 -144c0 -78 50 -309 151 -309z" />
    <glyph glyph-name="R" unicode="R" horiz-adv-x="760" 
d="M83 817h394c194 0 248 -118 248 -211c0 -119 -81 -198 -175 -258c63 -125 145 -241 237 -348l-179 -124c-132 150 -233 326 -314 509c56 43 189 120 189 197c0 55 -65 51 -103 51h-347zM287 608v-608h-214v608h214z" />
    <glyph glyph-name="S" unicode="S" horiz-adv-x="560" 
d="M476 817l50 -184h-180c-21 0 -79 5 -79 -27c0 -23 20 -41 35 -57l149 -165c51 -56 101 -114 101 -195c0 -73 -41 -189 -220 -189h-249l-50 184h194c21 0 79 -5 79 27c0 23 -20 41 -35 57l-145 164c-50 57 -100 115 -100 196c0 73 41 189 220 189h230z" />
    <glyph glyph-name="T" unicode="T" 
d="M595 817l50 -184h-228v-633h-214v633h-228l50 184h570z" />
    <glyph glyph-name="U" unicode="U" horiz-adv-x="760" 
d="M697 817v-817h-347c-239 0 -324 147 -324 336c0 171 66 330 142 481h231c-47 -105 -154 -306 -154 -478c0 -155 116 -155 158 -155h80v633h214z" />
    <glyph glyph-name="V" unicode="V" horiz-adv-x="640" 
d="M200 817l119 -540h2l118 540h229l-223 -817h-251l-223 817h229z" />
    <glyph glyph-name="W" unicode="W" horiz-adv-x="1040" 
d="M1058 817l-207 -817h-233l-97 476h-3l-97 -476h-233l-207 817h234l95 -517h3l98 517h217l108 -514h3l85 514h234z" />
    <glyph glyph-name="X" unicode="X" horiz-adv-x="640" 
d="M320 261l-113 -261h-243l214 428l-196 389h243l95 -225l95 225h243l-196 -389l214 -428h-243z" />
    <glyph glyph-name="Y" unicode="Y" 
d="M657 817l-240 -492v-209c0 -39 0 -79 13 -116l-194 -124c-28 56 -33 118 -33 180v269l-240 492h243l104 -244l104 244h243z" />
    <glyph glyph-name="Z" unicode="Z" horiz-adv-x="580" 
d="M71 817h514l-282 -633h272l-50 -184h-539l282 633h-247z" />
    <glyph glyph-name="bracketleft" unicode="[" horiz-adv-x="400" 
d="M389 -183h-365v1000h365l-48 -158h-103v-684h103z" />
    <glyph glyph-name="backslash" unicode="\" horiz-adv-x="452" 
d="M429 -50h-130l-275 915h129z" />
    <glyph glyph-name="bracketright" unicode="]" horiz-adv-x="400" 
d="M376 -183h-365l48 158h103v684h-103l-48 158h365v-1000z" />
    <glyph glyph-name="asciicircum" unicode="^" horiz-adv-x="702" 
d="M651 306h-124l-178 392l-180 -392h-119l245 512h111z" />
    <glyph glyph-name="underscore" unicode="_" horiz-adv-x="500" 
d="M500 -75v-50h-500v50h500z" />
    <glyph glyph-name="quoteleft" unicode="&#x2018;" horiz-adv-x="350" 
d="M133 540l-82 277h187l82 -277h-187z" />
    <glyph glyph-name="a" unicode="a" 
d="M564 604v-604h-193c-192 0 -351 170 -351 372c0 119 58 232 251 232h293zM372 163v278h-62c-30 0 -94 0 -94 -83c0 -90 62 -183 156 -195z" />
    <glyph glyph-name="b" unicode="b" 
d="M248 817v-213h100c193 0 252 -113 252 -232c0 -202 -160 -372 -346 -372h-198v817h192zM248 441v-278c94 12 156 105 156 195c0 83 -64 83 -94 83h-62z" />
    <glyph glyph-name="c" unicode="c" horiz-adv-x="460" 
d="M392 604l48 -163h-130c-30 0 -94 0 -94 -83c0 -90 72 -195 166 -195h68l-48 -163h-31c-192 0 -351 170 -351 372c0 119 58 232 251 232h121z" />
    <glyph glyph-name="d" unicode="d" 
d="M378 817h192v-817h-199c-192 0 -351 170 -351 372c0 119 58 232 251 232h107v213zM378 441h-68c-30 0 -94 0 -94 -83c0 -90 62 -183 156 -195h6v278z" />
    <glyph glyph-name="e" unicode="e" horiz-adv-x="580" 
d="M535 163l-48 -163h-116c-192 0 -351 170 -351 372c2 170 79 249 277 246h40c236 0 227 -137 227 -167c0 -134 -114 -218 -219 -277c50 -11 82 -11 114 -11h76zM368 424c0 31 -36 31 -59 31c-60 0 -93 -30 -93 -90c0 -24 5 -49 13 -72c41 21 139 79 139 131z" />
    <glyph glyph-name="f" unicode="f" horiz-adv-x="380" 
d="M67 446h-42v158h42c-10 126 35 213 185 213h102l48 -163h-71c-42 0 -76 7 -72 -50h113v-158h-113v-446h-192v446z" />
    <glyph glyph-name="g" unicode="g" 
d="M564 604v-599c0 -167 -53 -218 -232 -218h-213l-49 163h216c36 0 86 -10 86 50c-193 0 -352 170 -352 372c0 119 58 232 251 232h293zM372 441h-62c-30 0 -94 0 -94 -83c0 -90 62 -183 156 -195v278z" />
    <glyph glyph-name="h" unicode="h" 
d="M245 817v-213h106c164 0 216 -72 216 -232v-372h-192v344c-2 78 -3 95 -84 97h-46v-441h-192v817h192z" />
    <glyph glyph-name="i" unicode="i" horiz-adv-x="300" 
d="M246 604v-604h-192v604h192zM246 817v-163h-192v163h192z" />
    <glyph glyph-name="j" unicode="j" horiz-adv-x="320" 
d="M265 604v-476c0 -173 -51 -258 -144 -353l-150 108c103 107 102 213 102 266v455h192zM265 817v-163h-192v163h192z" />
    <glyph glyph-name="k" unicode="k" horiz-adv-x="600" 
d="M248 817v-817h-192v817h192zM579 604l-125 -265l152 -339h-212l-145 333l121 271h209z" />
    <glyph glyph-name="l" unicode="l" horiz-adv-x="300" 
d="M246 817v-817h-192v817h192z" />
    <glyph glyph-name="m" unicode="m" horiz-adv-x="900" 
d="M54 604h575c164 0 216 -72 216 -232v-372h-187v344c-2 78 -3 95 -84 97h-31v-441h-187v441h-115v-441h-187v604z" />
    <glyph glyph-name="n" unicode="n" 
d="M53 604h298c164 0 216 -72 216 -232v-372h-192v344c-2 78 -3 95 -84 97h-46v-441h-192v604z" />
    <glyph glyph-name="o" unicode="o" 
d="M268 618h84c249 0 247 -197 247 -229c0 -190 -108 -407 -289 -407s-289 217 -289 407c0 32 -2 229 247 229zM310 156c35 0 93 90 93 216c0 59 -34 83 -93 83s-93 -24 -93 -83c0 -126 58 -216 93 -216z" />
    <glyph glyph-name="p" unicode="p" 
d="M56 604h292c193 0 252 -113 252 -232c0 -170 -114 -336 -352 -386v-195h-192v813zM248 441v-278c94 12 156 105 156 195c-1 83 -65 83 -95 83h-61z" />
    <glyph glyph-name="q" unicode="q" 
d="M568 604v-813h-192v209h-105c-193 0 -251 113 -251 232c0 202 159 372 351 372h197zM376 163v278h-4c-94 -12 -156 -105 -156 -195c0 -83 64 -83 94 -83h66z" />
    <glyph glyph-name="r" unicode="r" horiz-adv-x="400" 
d="M58 604h184v-35c38 36 82 48 134 49v-173c-51 -2 -99 -19 -126 -65v-380h-192v604z" />
    <glyph glyph-name="s" unicode="s" horiz-adv-x="440" 
d="M347 604l48 -158h-86c-41 0 -55 -4 -55 -23c0 -11 10 -22 16 -30l85 -107c32 -40 58 -85 58 -138c0 -77 -58 -148 -151 -148h-195l-48 163h106c14 0 66 -11 66 14c0 15 -19 36 -27 47l-81 105c-32 41 -59 82 -59 136c0 42 32 139 162 139h161z" />
    <glyph glyph-name="t" unicode="t" horiz-adv-x="380" 
d="M255 779v-175h101v-158h-101v-230c0 -28 9 -51 49 -53h76l-48 -163h-87c-105 0 -182 39 -182 185v261h-43v158h43v118z" />
    <glyph glyph-name="u" unicode="u" 
d="M570 604v-604h-307c-188 0 -242 115 -242 252c0 111 56 252 103 352h197c-35 -95 -97 -240 -97 -339c0 -97 54 -102 133 -102h21v441h192z" />
    <glyph glyph-name="v" unicode="v" horiz-adv-x="560" 
d="M581 604l-190 -604h-222l-190 604h202l98 -387h2l98 387h202z" />
    <glyph glyph-name="w" unicode="w" horiz-adv-x="880" 
d="M900 604l-163 -604h-207l-89 365h-3l-89 -365h-207l-163 604h205l74 -407h3l88 407h181l88 -407h3l74 407h205z" />
    <glyph glyph-name="x" unicode="x" horiz-adv-x="520" 
d="M263 423l58 181h217l-151 -281l171 -323h-223l-74 216h-2l-74 -216h-223l171 323l-151 281h217l62 -181h2z" />
    <glyph glyph-name="y" unicode="y" horiz-adv-x="560" 
d="M588 604l-288 -812h-206l94 260l-216 552h228l87 -286h2l87 286h212z" />
    <glyph glyph-name="z" unicode="z" horiz-adv-x="480" 
d="M65 604h414l-205 -441h193l-48 -163h-429l208 446h-181z" />
    <glyph glyph-name="braceleft" unicode="{" horiz-adv-x="400" 
d="M317 640v-183c0 -84 -11 -134 -89 -151v-3c78 -17 89 -67 89 -151v-183c0 -78 23 -113 90 -132v-45h-165c-81 0 -139 51 -139 110v272c0 75 -21 113 -85 129v3c64 16 85 54 85 130v271c0 59 58 110 139 110h165v-45c-67 -19 -90 -54 -90 -132z" />
    <glyph glyph-name="bar" unicode="|" horiz-adv-x="411" 
d="M131 957h148v-1276h-148v1276z" />
    <glyph glyph-name="braceright" unicode="}" horiz-adv-x="400" 
d="M-7 772v45h165c81 0 139 -51 139 -110v-271c0 -76 21 -114 85 -130v-3c-64 -16 -85 -54 -85 -129v-272c0 -59 -58 -110 -139 -110h-165v45c67 19 90 54 90 132v183c0 84 11 134 89 151v3c-78 17 -89 67 -89 151v183c0 78 -23 113 -90 132z" />
    <glyph glyph-name="asciitilde" unicode="~" horiz-adv-x="727" 
d="M612 430l69 -69c-51 -81 -119 -127 -187 -127c-56 0 -91 17 -147 48c-35 20 -67 40 -109 40c-57 0 -94 -42 -130 -87l-68 69c40 68 120 127 202 127c62 0 101 -22 136 -42c50 -30 73 -45 112 -45c48 0 84 32 122 86z" />
    <glyph glyph-name="exclamdown" unicode="&#xa1;" horiz-adv-x="400" 
d="M305 -212h-211v583h211v-583zM305 420h-211v184h211v-184z" />
    <glyph glyph-name="cent" unicode="&#xa2;" horiz-adv-x="500" 
d="M403 710l48 -163h-130c-30 0 -94 0 -94 -83c0 -90 72 -195 166 -195h68l-48 -163h-31c-19 0 -37 2 -59 5v-67h-106v109c-51 27 -100 74 -133 131s-53 124 -53 194c0 104 44 204 186 227v96h106v-91h80z" />
    <glyph glyph-name="sterling" unicode="&#xa3;" horiz-adv-x="660" 
d="M564 817l50 -184h-191c-98 0 -92 -6 -92 -102v-24h188v-184h-188v-139h323l-50 -184h-487v323h-60v184h60v102c0 171 100 208 196 208h251z" />
    <glyph glyph-name="fraction" unicode="&#x2044;" horiz-adv-x="249" 
d="M-63 -12h-121l495 845h121z" />
    <glyph glyph-name="yen" unicode="&#xa5;" horiz-adv-x="654" 
d="M674 817l-180 -369h129v-158h-189v-174c0 -39 0 -79 13 -116l-194 -124c-28 56 -33 118 -33 180v234h-187v158h127l-180 369h243l104 -244l104 244h243z" />
    <glyph glyph-name="florin" unicode="&#x192;" horiz-adv-x="450" 
d="M127 446h-42v158h42c-10 126 35 213 185 213h102l48 -163h-71c-42 0 -76 7 -72 -50h113v-158h-113v-441c0 -168 -53 -218 -232 -218h-24l-48 163h26c36 0 86 -10 86 50v446z" />
    <glyph glyph-name="section" unicode="&#xa7;" horiz-adv-x="777" 
d="M649 825l-31 -127c-40 18 -109 35 -176 35c-94 0 -131 -24 -131 -56c0 -33 42 -53 162 -85c155 -46 248 -99 248 -216c0 -65 -42 -116 -104 -152c34 -23 63 -70 63 -118c0 -158 -185 -203 -309 -203c-86 0 -184 12 -260 56l37 126c41 -22 130 -52 211 -52
c58 0 125 13 125 61c0 41 -48 60 -155 88c-151 38 -266 89 -266 214c0 56 39 123 117 152c-31 25 -57 71 -57 117c0 134 133 199 303 199c82 0 157 -12 223 -39zM234 430v-1c0 -45 41 -67 126 -91c65 -18 122 -34 152 -47c21 11 38 30 38 56c0 42 -34 66 -106 88
c-55 17 -122 36 -163 50c-25 -10 -47 -26 -47 -55z" />
    <glyph glyph-name="currency" unicode="&#xa4;" horiz-adv-x="796" 
d="M700 152l-79 -75l-83 103c-42 -32 -95 -44 -141 -44c-48 0 -99 10 -141 44l-81 -103l-79 75l87 95c-30 39 -55 98 -55 168c0 64 19 126 56 167l-88 86l79 76l81 -96c37 32 91 47 140 47s102 -9 144 -46l82 96l77 -77l-88 -86c38 -41 56 -103 56 -167
c0 -62 -23 -126 -57 -167zM398 584h-2c-80 0 -140 -73 -140 -169c0 -99 60 -168 142 -168c81 0 142 70 142 168c0 96 -61 169 -142 169z" />
    <glyph glyph-name="quotesingle" unicode="'" horiz-adv-x="222" 
d="M51 546v271h120v-271h-120z" />
    <glyph glyph-name="quotedblleft" unicode="&#x201c;" horiz-adv-x="660" 
d="M408 540l-82 277h187l82 -277h-187zM147 540l-82 277h187l82 -277h-187z" />
    <glyph glyph-name="guillemotleft" unicode="&#xab;" horiz-adv-x="500" 
d="M240 522l-92 -172l86 -192l-106 -48l-112 240l121 227zM467 522l-92 -172l86 -192l-106 -48l-112 240l121 227z" />
    <glyph glyph-name="guilsinglleft" unicode="&#x2039;" horiz-adv-x="250" 
d="M234 522l-92 -172l86 -192l-106 -48l-112 240l121 227z" />
    <glyph glyph-name="guilsinglright" unicode="&#x203a;" horiz-adv-x="250" 
d="M16 522l103 55l121 -227l-112 -240l-106 48l86 192z" />
    <glyph glyph-name="endash" unicode="&#x2013;" horiz-adv-x="500" 
d="M500 429v-158h-500v158h500z" />
    <glyph glyph-name="dagger" unicode="&#x2020;" horiz-adv-x="727" 
d="M268 851h190l-18 -249l241 15v-169l-241 16l18 -526h-190l18 526l-241 -16v169l241 -15z" />
    <glyph glyph-name="daggerdbl" unicode="&#x2021;" horiz-adv-x="727" 
d="M270 851h184l-14 -221l242 15v-167l-242 16v-194l242 16v-166l-242 15l14 -227h-184l14 227l-239 -15v166l239 -16v194l-239 -16v167l239 -15z" />
    <glyph glyph-name="periodcentered" unicode="&#xb7;" horiz-adv-x="300" 
d="M240 443v-184h-180v184h180z" />
    <glyph glyph-name="paragraph" unicode="&#xb6;" horiz-adv-x="758" 
d="M436 -59h-130v388h-21c-108 0 -241 72 -240 244c1 168 118 283 421 283c78 0 159 -5 197 -14v-901h-130v795h-97v-795z" />
    <glyph glyph-name="bullet" unicode="&#x2022;" horiz-adv-x="480" 
d="M444 604v-398h-408v398h408z" />
    <glyph glyph-name="quotesinglbase" unicode="&#x201a;" horiz-adv-x="400" 
d="M334 182l-82 -277h-187l82 277h187z" />
    <glyph glyph-name="quotedblbase" unicode="&#x201e;" horiz-adv-x="660" 
d="M334 184l-82 -277h-187l82 277h187zM595 184l-82 -277h-187l82 277h187z" />
    <glyph glyph-name="quotedblright" unicode="&#x201d;" horiz-adv-x="660" 
d="M334 817l-82 -277h-187l82 277h187zM595 817l-82 -277h-187l82 277h187z" />
    <glyph glyph-name="guillemotright" unicode="&#xbb;" horiz-adv-x="500" 
d="M260 522l103 55l121 -227l-112 -240l-106 48l86 192zM33 522l103 55l121 -227l-112 -240l-106 48l86 192z" />
    <glyph glyph-name="ellipsis" unicode="&#x2026;" horiz-adv-x="1000" 
d="M257 184v-184h-180v184h180zM590 184v-184h-180v184h180zM923 184v-184h-180v184h180z" />
    <glyph glyph-name="perthousand" unicode="&#x2030;" horiz-adv-x="1768" 
d="M932 496h1c139 0 244 -90 244 -244c0 -170 -121 -263 -252 -263c-129 0 -246 89 -246 248c0 153 105 259 253 259zM1485 389h-2c-63 0 -90 -64 -90 -147c0 -92 32 -147 92 -147c57 0 89 47 89 148c0 88 -24 146 -89 146zM1488 496h1c139 0 244 -90 244 -244
c0 -170 -121 -263 -252 -263c-130 0 -247 89 -247 247c0 154 105 260 254 260zM929 389h-1c-64 0 -91 -64 -91 -147c0 -91 32 -146 93 -146c56 0 88 47 88 147c0 88 -23 146 -89 146zM288 835h1c140 0 244 -91 244 -244c0 -170 -122 -264 -252 -264c-129 0 -248 89 -248 248
c0 154 106 260 255 260zM285 727h-2c-64 0 -91 -63 -91 -146c0 -92 33 -147 93 -147c56 0 88 47 88 148c0 88 -23 145 -88 145zM407 -13h-115l503 845h115z" />
    <glyph glyph-name="questiondown" unicode="&#xbf;" horiz-adv-x="640" 
d="M543 -212h-245c-167 0 -249 110 -249 229c0 207 252 310 237 354h212v-59c0 -50 -55 -95 -111 -141c-55 -46 -110 -93 -110 -145c0 -61 88 -54 129 -54h184zM287 420v184h211v-184h-211z" />
    <glyph glyph-name="grave" unicode="`" horiz-adv-x="380" 
d="M82 817h148l67 -160h-140z" />
    <glyph glyph-name="acute" unicode="&#xb4;" horiz-adv-x="380" 
d="M367 817l-75 -160h-140l66 160h149z" />
    <glyph glyph-name="circumflex" unicode="&#x2c6;" horiz-adv-x="500" 
d="M325 817l96 -154h-136l-37 61l-36 -61h-133l95 154h151z" />
    <glyph glyph-name="tilde" unicode="&#x2dc;" horiz-adv-x="520" 
d="M366 811l73 -65c-42 -67 -89 -72 -105 -72c-67 0 -138 65 -182 0l-71 65c36 59 76 72 106 72c11 0 31 -7 53 -13c23 -6 48 -18 67 -18c25 0 49 14 59 31z" />
    <glyph glyph-name="macron" unicode="&#xaf;" horiz-adv-x="400" 
d="M361 817v-158h-322v158h322z" />
    <glyph glyph-name="breve" unicode="&#x2d8;" horiz-adv-x="400" 
d="M361 835v-128c-53 -60 -107 -85 -161 -85s-107 25 -161 85v128c54 -45 107 -62 161 -62s108 17 161 62z" />
    <glyph glyph-name="dotaccent" unicode="&#x2d9;" horiz-adv-x="400" 
d="M266 817v-135h-133v135h133z" />
    <glyph glyph-name="dieresis" unicode="&#xa8;" horiz-adv-x="500" 
d="M415 817v-135h-133v135h133zM217 817v-135h-133v135h133z" />
    <glyph glyph-name="ring" unicode="&#x2da;" horiz-adv-x="380" 
d="M171 719c0 -30 22 -37 48 -37s48 7 48 37c0 26 -14 70 -48 70s-48 -44 -48 -70zM219 624c-61 0 -111 17 -111 84c0 62 42 147 111 147s111 -85 111 -147c0 -67 -50 -84 -111 -84z" />
    <glyph glyph-name="cedilla" unicode="&#xb8;" horiz-adv-x="400" 
d="M295 97v-107h23c24 0 32 -13 32 -32v-109c0 -27 -13 -57 -39 -57h-113v85h67v57h-19c-16 0 -32 8 -32 31v132h81z" />
    <glyph glyph-name="hungarumlaut" unicode="&#x2dd;" horiz-adv-x="550" 
d="M290 817l-75 -160h-149l75 160h149zM525 817l-75 -160h-149l75 160h149z" />
    <glyph glyph-name="ogonek" unicode="&#x2db;" horiz-adv-x="400" 
d="M188 0h103c-39 -56 -58 -89 -58 -106c0 -8 5 -13 15 -14s24 1 43 6v-94h-94c-28 0 -58 30 -58 71c0 19 4 56 49 137z" />
    <glyph glyph-name="caron" unicode="&#x2c7;" horiz-adv-x="400" 
d="M371 817l-96 -154h-151l-95 154h133l36 -61l37 61h136z" />
    <glyph glyph-name="emdash" unicode="&#x2014;" horiz-adv-x="1000" 
d="M1000 429v-158h-1000v158h1000z" />
    <glyph glyph-name="AE" unicode="&#xc6;" horiz-adv-x="1047" 
d="M297 507h181v101h214v-101h299l-50 -184h-249v-139h350l-51 -184h-513v323h-237c-2 -123 34 -245 85 -323l-174 -115c-79 119 -127 262 -127 406c0 284 170 526 501 526h439l50 -184h-479c-139 0 -217 -71 -239 -126z" />
    <glyph glyph-name="ordfeminine" unicode="&#xaa;" horiz-adv-x="372" 
d="M362 825v-362h-125c-125 0 -228 102 -228 223c0 71 38 139 163 139h190zM238 561v166h-41c-19 0 -61 0 -61 -50c0 -54 41 -109 102 -116z" />
    <glyph glyph-name="Lslash" unicode="&#x141;" horiz-adv-x="540" 
d="M420 504l-136 -47v-273h281l-50 -184h-445v383l-114 -39v130l114 39v304h214v-230l136 47v-130z" />
    <glyph glyph-name="Oslash" unicode="&#xd8;" horiz-adv-x="800" 
d="M400 175c81 0 149 177 149 325c0 109 -44 144 -149 144s-149 -35 -149 -144c0 -148 68 -325 149 -325zM12 64l101 114c-57 101 -85 227 -85 332c0 177 85 325 372 325c96 0 169 -17 224 -45l72 84l138 -118l-87 -102c18 -42 25 -92 25 -144c0 -217 -120 -528 -372 -528
c-65 0 -121 21 -170 56l-82 -92z" />
    <glyph glyph-name="OE" unicode="&#x152;" horiz-adv-x="1120" 
d="M1043 817l50 -184h-334v-121h304l-50 -184h-254v-144h356l-50 -184h-565c-11 -5 -25 -9 -42 -13c-17 -3 -37 -5 -58 -5c-252 0 -372 311 -372 528c0 177 85 325 372 325c67 0 113 -8 150 -18h493zM549 500c0 109 -44 144 -149 144s-149 -35 -149 -144
c0 -148 68 -325 149 -325s149 177 149 325z" />
    <glyph glyph-name="ordmasculine" unicode="&#xba;" horiz-adv-x="372" 
d="M158 835h55c162 0 161 -118 161 -137c0 -114 -71 -245 -188 -245c-118 0 -188 131 -188 245c0 19 -1 137 160 137zM186 558c22 0 61 54 61 129c0 36 -23 50 -61 50c-39 0 -61 -14 -61 -50c0 -75 38 -129 61 -129z" />
    <glyph glyph-name="ae" unicode="&#xe6;" horiz-adv-x="892" 
d="M680 413c0 31 -36 31 -59 31c-60 0 -93 -30 -93 -90c0 -24 5 -49 13 -72c41 21 139 79 139 131zM372 441h-62c-30 0 -94 0 -94 -83c0 -90 62 -183 156 -195v278zM271 604h400c158 -4 205 -84 205 -170c0 -121 -106 -206 -201 -263c50 -11 82 -11 114 -11h76l-48 -163
h-116c-43 3 -113 8 -160 42v-39h-170c-192 0 -351 170 -351 372c0 119 58 232 251 232z" />
    <glyph glyph-name="dotlessi" unicode="&#x131;" horiz-adv-x="300" 
d="M246 604v-604h-192v604h192z" />
    <glyph glyph-name="lslash" unicode="&#x142;" horiz-adv-x="300" 
d="M246 817v-213l79 27v-119l-79 -27v-485h-192v419l-79 -27v118l79 27v280h192z" />
    <glyph glyph-name="oslash" unicode="&#xf8;" 
d="M310 156c35 0 93 90 93 216c0 59 -34 83 -93 83s-93 -24 -93 -83c0 -126 58 -216 93 -216zM520 640l100 -87l-45 -52c24 -48 24 -97 24 -112c0 -190 -108 -407 -289 -407c-56 0 -106 21 -147 57l-55 -64l-100 89l71 82c-37 72 -58 160 -58 243c0 32 -2 229 247 229h84
c53 0 95 -9 127 -23z" />
    <glyph glyph-name="oe" unicode="&#x153;" horiz-adv-x="943" 
d="M731 424c0 31 -36 31 -59 31c-60 0 -93 -30 -93 -90c0 -24 5 -49 13 -72c41 21 139 79 139 131zM310 156c35 0 93 90 93 216c0 59 -34 83 -93 83s-93 -24 -93 -83c0 -126 58 -216 93 -216zM268 618h86c23 0 101 2 146 -43c40 45 117 43 160 43h40
c236 0 227 -137 227 -167c0 -134 -114 -218 -219 -277c50 -11 82 -11 114 -11h76l-48 -163h-116c-58 0 -146 14 -221 97c-50 -70 -114 -113 -203 -115c-181 0 -289 217 -289 407c0 32 -2 229 247 229z" />
    <glyph glyph-name="germandbls" unicode="&#xdf;" horiz-adv-x="640" 
d="M248 567v-567h-192v612c0 169 64 223 269 223c225 0 259 -91 259 -183c0 -67 -54 -142 -104 -197c71 -69 141 -171 141 -267c0 -79 -34 -188 -212 -188h-83l-48 163c53 0 127 -9 127 45c0 67 -103 189 -145 233c35 42 113 117 113 177c0 30 -33 43 -60 43
c-67 0 -65 -44 -65 -94z" />
    <glyph glyph-name="onesuperior" unicode="&#xb9;" horiz-adv-x="300" 
d="M34 817h194v-490h-137v380h-89z" />
    <glyph glyph-name="logicalnot" unicode="&#xac;" horiz-adv-x="727" 
d="M665 128h-117v262h-487v111h604v-373z" />
    <glyph glyph-name="mu" unicode="&#xb5;" 
d="M570 604v-604h-318c9 -39 27 -77 63 -117l-150 -108c-49 51 -144 170 -144 477c0 111 56 252 103 352h197c-35 -95 -97 -240 -97 -339c0 -97 54 -102 133 -102h21v441h192z" />
    <glyph glyph-name="trademark" unicode="&#x2122;" horiz-adv-x="910" 
d="M378 817l29 -94h-131v-318h-123v318h-130l29 94h326zM878 817v-412h-123v236l-96 -109l-93 109v-236h-123v412h117l99 -119l102 119h117z" />
    <glyph glyph-name="Eth" unicode="&#xd0;" horiz-adv-x="780" 
d="M247 0h-174v328h-78v184h78v96h214v-96h124v-184h-124v-144c154 9 252 153 251 294c0 155 -116 155 -158 155h-347l50 184h347c244 0 327 -155 327 -320c0 -308 -238 -497 -510 -497z" />
    <glyph glyph-name="onehalf" unicode="&#xbd;" horiz-adv-x="1167" 
d="M322 -13h-120l496 845h120zM329 336h-160v369h-3l-94 -38l-32 103l149 59h140v-493zM676 0v77l92 75c112 87 161 124 161 171c0 28 -26 57 -84 57c-45 0 -95 -17 -124 -35l-41 99c45 28 121 54 207 54c126 0 208 -59 208 -153c0 -92 -74 -142 -163 -208l-36 -21v-3h209
v-113h-429z" />
    <glyph glyph-name="plusminus" unicode="&#xb1;" horiz-adv-x="727" 
d="M664 395h-242v-235h-118v235h-243v112h243v223h118v-223h242v-112zM665 -8h-603v111h603v-111z" />
    <glyph glyph-name="Thorn" unicode="&#xde;" horiz-adv-x="700" 
d="M287 91v-91h-214v817h214v-505c60 21 177 95 177 169c0 61 -61 79 -95 80h-57v184h73c232 0 298 -131 298 -243c0 -126 -90 -281 -396 -411z" />
    <glyph glyph-name="onequarter" unicode="&#xbc;" horiz-adv-x="1122" 
d="M996 0h-149v109h-268v81l240 307h177v-291h75v-97h-75v-109zM847 206v91c0 29 3 57 4 87h-3c-16 -26 -35 -53 -51 -72l-89 -105l3 -1h136zM323 -13h-121l496 845h121zM329 336h-160v369h-3l-94 -38l-32 103l149 59h140v-493z" />
    <glyph glyph-name="divide" unicode="&#xf7;" horiz-adv-x="727" 
d="M366 476h-2c-40 0 -81 39 -81 86s41 88 83 88c46 0 83 -41 83 -88s-37 -86 -83 -86zM665 278h-604v112h604v-112zM365 192h2c40 0 80 -38 80 -85c0 -46 -40 -89 -82 -89c-47 0 -85 43 -85 89c0 47 38 85 85 85z" />
    <glyph glyph-name="brokenbar" unicode="&#xa6;" horiz-adv-x="411" 
d="M131 861h148v-446h-148v446zM131 223h148v-445h-148v445z" />
    <glyph glyph-name="degree" unicode="&#xb0;" horiz-adv-x="485" 
d="M239 843h1c109 0 189 -82 189 -192c0 -121 -87 -191 -190 -191s-190 70 -190 191c0 118 87 192 190 192zM239 771h-2c-56 0 -96 -48 -96 -119c0 -69 41 -120 99 -120c59 0 96 49 96 116c0 66 -31 123 -97 123z" />
    <glyph glyph-name="thorn" unicode="&#xfe;" 
d="M56 817h192v-213h100c193 0 252 -113 252 -232c0 -170 -114 -336 -352 -386v-195h-192v1026zM248 441v-278c94 12 156 105 156 195c-1 83 -65 83 -95 83h-61z" />
    <glyph glyph-name="threequarters" unicode="&#xbe;" horiz-adv-x="1209" 
d="M1083 0h-148v109h-268v81l239 307h177v-291h75v-97h-75v-109zM935 206v91c0 29 2 57 4 87h-3c-17 -26 -36 -53 -51 -73l-90 -104l4 -1h136zM410 -13h-120l496 845h120zM88 699l-30 96c40 22 115 40 200 40c128 0 203 -50 203 -126c0 -56 -51 -95 -116 -113v-2
c78 -8 137 -54 137 -115c0 -89 -97 -149 -249 -149c-78 0 -157 15 -196 35l30 102c27 -14 88 -33 139 -33c62 0 108 20 108 55c0 37 -57 59 -129 59h-46v90h44c59 0 114 16 114 49c0 23 -21 44 -83 44c-49 0 -100 -18 -126 -32z" />
    <glyph glyph-name="twosuperior" unicode="&#xb2;" horiz-adv-x="428" 
d="M72 817h166c101 0 127 -56 127 -98c0 -41 -20 -73 -39 -108l-97 -174h150l-32 -110h-335l180 323c5 9 16 25 16 36c0 24 -35 20 -52 21h-116z" />
    <glyph glyph-name="registered" unicode="&#xae;" horiz-adv-x="940" 
d="M470 -18c-237 0 -427 191 -427 427s190 426 427 426c236 0 426 -190 426 -426s-190 -427 -426 -427zM470 97c171 0 311 140 311 312s-140 311 -311 311c-173 0 -312 -139 -312 -311s139 -312 312 -312zM413 212h-123v318h123v-318zM295 646h225c110 -1 141 -62 141 -111
c0 -62 -46 -103 -100 -135c36 -65 83 -126 127 -172l-102 -64c-67 68 -124 160 -171 256c32 22 108 62 108 103c0 28 -37 26 -59 26h-197z" />
    <glyph glyph-name="minus" unicode="&#x2212;" horiz-adv-x="727" 
d="M665 278h-604v112h604v-112z" />
    <glyph glyph-name="eth" unicode="&#xf0;" horiz-adv-x="640" 
d="M310 156c35 0 93 90 93 216c0 53 -34 69 -93 69s-93 -16 -93 -69c0 -126 58 -216 93 -216zM578 832l42 -86l-146 -38c85 -110 125 -253 125 -319c0 -190 -108 -407 -289 -407s-289 217 -289 407c0 61 3 215 236 215h93c-10 20 -29 49 -44 64l-166 -44l-38 80l142 36
c-32 35 -44 44 -59 55l177 39c14 -12 30 -28 48 -48z" />
    <glyph glyph-name="multiply" unicode="&#xd7;" horiz-adv-x="727" 
d="M659 96l-83 -82l-216 226l-214 -226l-82 82l218 227l-216 225l82 82l216 -224l213 226l83 -81l-219 -228z" />
    <glyph glyph-name="threesuperior" unicode="&#xb3;" horiz-adv-x="440" 
d="M67 817h153c124 0 155 -59 155 -113c0 -49 -32 -81 -73 -116c48 -38 89 -77 89 -140c0 -50 -33 -121 -150 -121h-182l-33 110h136c23 0 71 -4 71 29c0 40 -92 96 -126 119l43 30c20 14 67 43 67 69c0 23 -19 23 -65 23h-117z" />
    <glyph glyph-name="copyright" unicode="&#xa9;" horiz-adv-x="940" 
d="M470 -18c-237 0 -427 191 -427 427s190 426 427 426c236 0 426 -190 426 -426s-190 -427 -426 -427zM470 97c171 0 311 140 311 312s-140 311 -311 311c-173 0 -312 -139 -312 -311s139 -312 312 -312zM637 282l-36 -105h-26c-198 0 -335 133 -335 283
c0 94 59 183 234 183h116l36 -105h-74c-87 0 -155 -1 -155 -89c0 -93 88 -174 240 -167z" />
    <glyph glyph-name="Aacute" unicode="&#xc1;" horiz-adv-x="760" 
d="M692 608v-608h-214v259h-234c1 -92 35 -181 82 -259l-174 -115c-79 119 -127 262 -127 406c0 142 45 290 147 392c114 115 247 134 401 134h105l50 -184h-168c-229 0 -268 -120 -295 -190h213v165h214zM563 1030l-75 -160h-140l66 160h149z" />
    <glyph glyph-name="Acircumflex" unicode="&#xc2;" horiz-adv-x="760" 
d="M692 608v-608h-214v259h-234c1 -92 35 -181 82 -259l-174 -115c-79 119 -127 262 -127 406c0 142 45 290 147 392c114 115 247 134 401 134h105l50 -184h-168c-229 0 -268 -120 -295 -190h213v165h214zM480 1030l96 -154h-136l-37 61l-36 -61h-133l95 154h151z" />
    <glyph glyph-name="Adieresis" unicode="&#xc4;" horiz-adv-x="760" 
d="M692 608v-608h-214v259h-234c1 -92 35 -181 82 -259l-174 -115c-79 119 -127 262 -127 406c0 142 45 290 147 392c114 115 247 134 401 134h105l50 -184h-168c-229 0 -268 -120 -295 -190h213v165h214zM565 1030v-135h-133v135h133zM367 1030v-135h-133v135h133z" />
    <glyph glyph-name="Agrave" unicode="&#xc0;" horiz-adv-x="760" 
d="M692 608v-608h-214v259h-234c1 -92 35 -181 82 -259l-174 -115c-79 119 -127 262 -127 406c0 142 45 290 147 392c114 115 247 134 401 134h105l50 -184h-168c-229 0 -268 -120 -295 -190h213v165h214zM272 1030h148l67 -160h-140z" />
    <glyph glyph-name="Aring" unicode="&#xc5;" horiz-adv-x="760" 
d="M692 608v-608h-214v259h-234c1 -92 35 -181 82 -259l-174 -115c-79 119 -127 262 -127 406c0 142 45 290 147 392c114 115 247 134 401 134h105l50 -184h-168c-229 0 -268 -120 -295 -190h213v165h214zM373 932c0 -30 22 -37 48 -37s48 7 48 37c0 26 -14 70 -48 70
s-48 -44 -48 -70zM421 837c-61 0 -111 17 -111 84c0 62 42 147 111 147s111 -85 111 -147c0 -67 -50 -84 -111 -84z" />
    <glyph glyph-name="Atilde" unicode="&#xc3;" horiz-adv-x="760" 
d="M692 608v-608h-214v259h-234c1 -92 35 -181 82 -259l-174 -115c-79 119 -127 262 -127 406c0 142 45 290 147 392c114 115 247 134 401 134h105l50 -184h-168c-229 0 -268 -120 -295 -190h213v165h214zM511 1024l73 -65c-42 -67 -89 -72 -105 -72c-67 0 -138 65 -182 0
l-71 65c36 59 76 72 106 72c11 0 31 -7 53 -13c23 -6 48 -18 67 -18c25 0 49 14 59 31z" />
    <glyph glyph-name="Ccedilla" unicode="&#xc7;" horiz-adv-x="580" 
d="M581 184l-50 -184h-37c-38 0 -75 5 -109 13v-23h23c24 0 32 -13 32 -32v-109c0 -27 -13 -57 -39 -57h-113v85h67v57h-19c-16 0 -32 8 -32 31v76c-170 78 -278 259 -278 456c0 165 83 320 327 320h167l50 -184h-167c-42 0 -158 0 -158 -155c0 -164 123 -306 336 -294z" />
    <glyph glyph-name="Eacute" unicode="&#xc9;" horiz-adv-x="640" 
d="M563 817l50 -184h-329v-121h299l-50 -184h-249v-144h351l-50 -184h-515v817h493zM497 1030l-75 -160h-140l66 160h149z" />
    <glyph glyph-name="Ecircumflex" unicode="&#xca;" horiz-adv-x="640" 
d="M563 817l50 -184h-329v-121h299l-50 -184h-249v-144h351l-50 -184h-515v817h493zM395 1030l96 -154h-136l-37 61l-36 -61h-133l95 154h151z" />
    <glyph glyph-name="Edieresis" unicode="&#xcb;" horiz-adv-x="640" 
d="M563 817l50 -184h-329v-121h299l-50 -184h-249v-144h351l-50 -184h-515v817h493zM485 1030v-135h-133v135h133zM287 1030v-135h-133v135h133z" />
    <glyph glyph-name="Egrave" unicode="&#xc8;" horiz-adv-x="640" 
d="M563 817l50 -184h-329v-121h299l-50 -184h-249v-144h351l-50 -184h-515v817h493zM212 1030h148l67 -160h-140z" />
    <glyph glyph-name="Iacute" unicode="&#xcd;" horiz-adv-x="360" 
d="M287 817v-817h-214v817h214zM357 1030l-75 -160h-140l66 160h149z" />
    <glyph glyph-name="Icircumflex" unicode="&#xce;" horiz-adv-x="360" 
d="M287 817v-817h-214v817h214zM255 1030l96 -154h-136l-37 61l-36 -61h-133l95 154h151z" />
    <glyph glyph-name="Idieresis" unicode="&#xcf;" horiz-adv-x="360" 
d="M287 817v-817h-214v817h214zM345 1030v-135h-133v135h133zM147 1030v-135h-133v135h133z" />
    <glyph glyph-name="Igrave" unicode="&#xcc;" horiz-adv-x="360" 
d="M287 817v-817h-214v817h214zM72 1030h148l67 -160h-140z" />
    <glyph glyph-name="Ntilde" unicode="&#xd1;" horiz-adv-x="800" 
d="M728 817v-817h-214v241l-226 275h-2v-516h-214v817h204l238 -278v278h214zM496 1024l73 -65c-42 -67 -89 -72 -105 -72c-67 0 -138 65 -182 0l-71 65c36 59 76 72 106 72c11 0 31 -7 53 -13c23 -6 48 -18 67 -18c25 0 49 14 59 31z" />
    <glyph glyph-name="Oacute" unicode="&#xd3;" horiz-adv-x="800" 
d="M400 -18c-252 0 -372 311 -372 528c0 177 85 325 372 325s372 -148 372 -325c0 -217 -120 -528 -372 -528zM400 175c81 0 149 177 149 325c0 109 -44 144 -149 144s-149 -35 -149 -144c0 -148 68 -325 149 -325zM577 1030l-75 -160h-140l66 160h149z" />
    <glyph glyph-name="Ocircumflex" unicode="&#xd4;" horiz-adv-x="800" 
d="M400 -18c-252 0 -372 311 -372 528c0 177 85 325 372 325s372 -148 372 -325c0 -217 -120 -528 -372 -528zM400 175c81 0 149 177 149 325c0 109 -44 144 -149 144s-149 -35 -149 -144c0 -148 68 -325 149 -325zM475 1030l96 -154h-136l-37 61l-36 -61h-133l95 154h151z
" />
    <glyph glyph-name="Odieresis" unicode="&#xd6;" horiz-adv-x="800" 
d="M400 -18c-252 0 -372 311 -372 528c0 177 85 325 372 325s372 -148 372 -325c0 -217 -120 -528 -372 -528zM400 175c81 0 149 177 149 325c0 109 -44 144 -149 144s-149 -35 -149 -144c0 -148 68 -325 149 -325zM565 1030v-135h-133v135h133zM367 1030v-135h-133v135h133
z" />
    <glyph glyph-name="Ograve" unicode="&#xd2;" horiz-adv-x="800" 
d="M400 -18c-252 0 -372 311 -372 528c0 177 85 325 372 325s372 -148 372 -325c0 -217 -120 -528 -372 -528zM400 175c81 0 149 177 149 325c0 109 -44 144 -149 144s-149 -35 -149 -144c0 -148 68 -325 149 -325zM292 1030h148l67 -160h-140z" />
    <glyph glyph-name="Otilde" unicode="&#xd5;" horiz-adv-x="800" 
d="M400 -18c-252 0 -372 311 -372 528c0 177 85 325 372 325s372 -148 372 -325c0 -217 -120 -528 -372 -528zM400 175c81 0 149 177 149 325c0 109 -44 144 -149 144s-149 -35 -149 -144c0 -148 68 -325 149 -325zM506 1024l73 -65c-42 -67 -89 -72 -105 -72
c-67 0 -138 65 -182 0l-71 65c36 59 76 72 106 72c11 0 31 -7 53 -13c23 -6 48 -18 67 -18c25 0 49 14 59 31z" />
    <glyph glyph-name="Scaron" unicode="&#x160;" horiz-adv-x="560" 
d="M476 817l50 -184h-180c-21 0 -79 5 -79 -27c0 -23 20 -41 35 -57l149 -165c51 -56 101 -114 101 -195c0 -73 -41 -189 -220 -189h-249l-50 184h194c21 0 79 -5 79 27c0 23 -20 41 -35 57l-145 164c-50 57 -100 115 -100 196c0 73 41 189 220 189h230zM451 1030l-96 -154
h-151l-95 154h133l36 -61l37 61h136z" />
    <glyph glyph-name="Uacute" unicode="&#xda;" horiz-adv-x="760" 
d="M697 817v-817h-347c-239 0 -324 147 -324 336c0 171 66 330 142 481h231c-47 -105 -154 -306 -154 -478c0 -155 116 -155 158 -155h80v633h214zM557 1030l-75 -160h-140l66 160h149z" />
    <glyph glyph-name="Ucircumflex" unicode="&#xdb;" horiz-adv-x="760" 
d="M697 817v-817h-347c-239 0 -324 147 -324 336c0 171 66 330 142 481h231c-47 -105 -154 -306 -154 -478c0 -155 116 -155 158 -155h80v633h214zM467 1030l96 -154h-136l-37 61l-36 -61h-133l95 154h151z" />
    <glyph glyph-name="Udieresis" unicode="&#xdc;" horiz-adv-x="760" 
d="M697 817v-817h-347c-239 0 -324 147 -324 336c0 171 66 330 142 481h231c-47 -105 -154 -306 -154 -478c0 -155 116 -155 158 -155h80v633h214zM565 1030v-135h-133v135h133zM367 1030v-135h-133v135h133z" />
    <glyph glyph-name="Ugrave" unicode="&#xd9;" horiz-adv-x="760" 
d="M697 817v-817h-347c-239 0 -324 147 -324 336c0 171 66 330 142 481h231c-47 -105 -154 -306 -154 -478c0 -155 116 -155 158 -155h80v633h214zM272 1030h148l67 -160h-140z" />
    <glyph glyph-name="Yacute" unicode="&#xdd;" 
d="M657 817l-240 -492v-209c0 -39 0 -79 13 -116l-194 -124c-28 56 -33 118 -33 180v269l-240 492h243l104 -244l104 244h243zM487 1030l-75 -160h-140l66 160h149z" />
    <glyph glyph-name="Ydieresis" unicode="&#x178;" 
d="M657 817l-240 -492v-209c0 -39 0 -79 13 -116l-194 -124c-28 56 -33 118 -33 180v269l-240 492h243l104 -244l104 244h243zM475 1030v-135h-133v135h133zM277 1030v-135h-133v135h133z" />
    <glyph glyph-name="Zcaron" unicode="&#x17d;" horiz-adv-x="580" 
d="M71 817h514l-282 -633h272l-50 -184h-539l282 633h-247zM461 1030l-96 -154h-151l-95 154h133l36 -61l37 61h136z" />
    <glyph glyph-name="aacute" unicode="&#xe1;" 
d="M564 604v-604h-193c-192 0 -351 170 -351 372c0 119 58 232 251 232h293zM372 163v278h-62c-30 0 -94 0 -94 -83c0 -90 62 -183 156 -195zM487 817l-75 -160h-140l66 160h149z" />
    <glyph glyph-name="acircumflex" unicode="&#xe2;" 
d="M564 604v-604h-193c-192 0 -351 170 -351 372c0 119 58 232 251 232h293zM372 163v278h-62c-30 0 -94 0 -94 -83c0 -90 62 -183 156 -195zM385 817l96 -154h-136l-37 61l-36 -61h-133l95 154h151z" />
    <glyph glyph-name="adieresis" unicode="&#xe4;" 
d="M564 604v-604h-193c-192 0 -351 170 -351 372c0 119 58 232 251 232h293zM372 163v278h-62c-30 0 -94 0 -94 -83c0 -90 62 -183 156 -195zM475 817v-135h-133v135h133zM277 817v-135h-133v135h133z" />
    <glyph glyph-name="agrave" unicode="&#xe0;" 
d="M564 604v-604h-193c-192 0 -351 170 -351 372c0 119 58 232 251 232h293zM372 163v278h-62c-30 0 -94 0 -94 -83c0 -90 62 -183 156 -195zM202 817h148l67 -160h-140z" />
    <glyph glyph-name="aring" unicode="&#xe5;" 
d="M564 604v-604h-193c-192 0 -351 170 -351 372c0 119 58 232 251 232h293zM372 163v278h-62c-30 0 -94 0 -94 -83c0 -90 62 -183 156 -195zM291 719c0 -30 22 -37 48 -37s48 7 48 37c0 26 -14 70 -48 70s-48 -44 -48 -70zM339 624c-61 0 -111 17 -111 84
c0 62 42 147 111 147s111 -85 111 -147c0 -67 -50 -84 -111 -84z" />
    <glyph glyph-name="atilde" unicode="&#xe3;" 
d="M564 604v-604h-193c-192 0 -351 170 -351 372c0 119 58 232 251 232h293zM372 163v278h-62c-30 0 -94 0 -94 -83c0 -90 62 -183 156 -195zM416 811l73 -65c-42 -67 -89 -72 -105 -72c-67 0 -138 65 -182 0l-71 65c36 59 76 72 106 72c11 0 31 -7 53 -13
c23 -6 48 -18 67 -18c25 0 49 14 59 31z" />
    <glyph glyph-name="ccedilla" unicode="&#xe7;" horiz-adv-x="460" 
d="M450 163l-48 -163h-31c-19 0 -38 2 -56 6v-16h23c24 0 32 -13 32 -32v-109c0 -27 -13 -57 -39 -57h-113v85h67v57h-19c-16 0 -32 8 -32 31v65c-125 57 -214 191 -214 342c0 119 58 232 251 232h121l48 -163h-130c-30 0 -94 0 -94 -83c0 -90 72 -195 166 -195h68z" />
    <glyph glyph-name="eacute" unicode="&#xe9;" horiz-adv-x="580" 
d="M535 163l-48 -163h-116c-192 0 -351 170 -351 372c2 170 79 249 277 246h40c236 0 227 -137 227 -167c0 -134 -114 -218 -219 -277c50 -11 82 -11 114 -11h76zM368 424c0 31 -36 31 -59 31c-60 0 -93 -30 -93 -90c0 -24 5 -49 13 -72c41 21 139 79 139 131zM467 817
l-75 -160h-140l66 160h149z" />
    <glyph glyph-name="ecircumflex" unicode="&#xea;" horiz-adv-x="580" 
d="M535 163l-48 -163h-116c-192 0 -351 170 -351 372c2 170 79 249 277 246h40c236 0 227 -137 227 -167c0 -134 -114 -218 -219 -277c50 -11 82 -11 114 -11h76zM368 424c0 31 -36 31 -59 31c-60 0 -93 -30 -93 -90c0 -24 5 -49 13 -72c41 21 139 79 139 131zM365 817
l96 -154h-136l-37 61l-36 -61h-133l95 154h151z" />
    <glyph glyph-name="edieresis" unicode="&#xeb;" horiz-adv-x="580" 
d="M535 163l-48 -163h-116c-192 0 -351 170 -351 372c2 170 79 249 277 246h40c236 0 227 -137 227 -167c0 -134 -114 -218 -219 -277c50 -11 82 -11 114 -11h76zM368 424c0 31 -36 31 -59 31c-60 0 -93 -30 -93 -90c0 -24 5 -49 13 -72c41 21 139 79 139 131zM455 817v-135
h-133v135h133zM257 817v-135h-133v135h133z" />
    <glyph glyph-name="egrave" unicode="&#xe8;" horiz-adv-x="580" 
d="M535 163l-48 -163h-116c-192 0 -351 170 -351 372c2 170 79 249 277 246h40c236 0 227 -137 227 -167c0 -134 -114 -218 -219 -277c50 -11 82 -11 114 -11h76zM368 424c0 31 -36 31 -59 31c-60 0 -93 -30 -93 -90c0 -24 5 -49 13 -72c41 21 139 79 139 131zM182 817h148
l67 -160h-140z" />
    <glyph glyph-name="iacute" unicode="&#xed;" horiz-adv-x="300" 
d="M246 604v-604h-192v604h192zM317 817l-75 -160h-140l66 160h149z" />
    <glyph glyph-name="icircumflex" unicode="&#xee;" horiz-adv-x="300" 
d="M246 604v-604h-192v604h192zM225 817l96 -154h-136l-37 61l-36 -61h-133l95 154h151z" />
    <glyph glyph-name="idieresis" unicode="&#xef;" horiz-adv-x="300" 
d="M246 604v-604h-192v604h192zM315 817v-135h-133v135h133zM117 817v-135h-133v135h133z" />
    <glyph glyph-name="igrave" unicode="&#xec;" horiz-adv-x="300" 
d="M246 604v-604h-192v604h192zM32 817h148l67 -160h-140z" />
    <glyph glyph-name="ntilde" unicode="&#xf1;" 
d="M53 604h298c164 0 216 -72 216 -232v-372h-192v344c-2 78 -3 95 -84 97h-46v-441h-192v604zM406 811l73 -65c-42 -67 -89 -72 -105 -72c-67 0 -138 65 -182 0l-71 65c36 59 76 72 106 72c11 0 31 -7 53 -13c23 -6 48 -18 67 -18c25 0 49 14 59 31z" />
    <glyph glyph-name="oacute" unicode="&#xf3;" 
d="M268 618h84c249 0 247 -197 247 -229c0 -190 -108 -407 -289 -407s-289 217 -289 407c0 32 -2 229 247 229zM310 156c35 0 93 90 93 216c0 59 -34 83 -93 83s-93 -24 -93 -83c0 -126 58 -216 93 -216zM487 817l-75 -160h-140l66 160h149z" />
    <glyph glyph-name="ocircumflex" unicode="&#xf4;" 
d="M268 618h84c249 0 247 -197 247 -229c0 -190 -108 -407 -289 -407s-289 217 -289 407c0 32 -2 229 247 229zM310 156c35 0 93 90 93 216c0 59 -34 83 -93 83s-93 -24 -93 -83c0 -126 58 -216 93 -216zM385 817l96 -154h-136l-37 61l-36 -61h-133l95 154h151z" />
    <glyph glyph-name="odieresis" unicode="&#xf6;" 
d="M268 618h84c249 0 247 -197 247 -229c0 -190 -108 -407 -289 -407s-289 217 -289 407c0 32 -2 229 247 229zM310 156c35 0 93 90 93 216c0 59 -34 83 -93 83s-93 -24 -93 -83c0 -126 58 -216 93 -216zM475 817v-135h-133v135h133zM277 817v-135h-133v135h133z" />
    <glyph glyph-name="ograve" unicode="&#xf2;" 
d="M268 618h84c249 0 247 -197 247 -229c0 -190 -108 -407 -289 -407s-289 217 -289 407c0 32 -2 229 247 229zM310 156c35 0 93 90 93 216c0 59 -34 83 -93 83s-93 -24 -93 -83c0 -126 58 -216 93 -216zM202 817h148l67 -160h-140z" />
    <glyph glyph-name="otilde" unicode="&#xf5;" 
d="M268 618h84c249 0 247 -197 247 -229c0 -190 -108 -407 -289 -407s-289 217 -289 407c0 32 -2 229 247 229zM310 156c35 0 93 90 93 216c0 59 -34 83 -93 83s-93 -24 -93 -83c0 -126 58 -216 93 -216zM416 811l73 -65c-42 -67 -89 -72 -105 -72c-67 0 -138 65 -182 0
l-71 65c36 59 76 72 106 72c11 0 31 -7 53 -13c23 -6 48 -18 67 -18c25 0 49 14 59 31z" />
    <glyph glyph-name="scaron" unicode="&#x161;" horiz-adv-x="440" 
d="M347 604l48 -158h-86c-41 0 -55 -4 -55 -23c0 -11 10 -22 16 -30l85 -107c32 -40 58 -85 58 -138c0 -77 -58 -148 -151 -148h-195l-48 163h106c14 0 66 -11 66 14c0 15 -19 36 -27 47l-81 105c-32 41 -59 82 -59 136c0 42 32 139 162 139h161zM391 817l-96 -154h-151
l-95 154h133l36 -61l37 61h136z" />
    <glyph glyph-name="uacute" unicode="&#xfa;" 
d="M570 604v-604h-307c-188 0 -242 115 -242 252c0 111 56 252 103 352h197c-35 -95 -97 -240 -97 -339c0 -97 54 -102 133 -102h21v441h192zM487 817l-75 -160h-140l66 160h149z" />
    <glyph glyph-name="ucircumflex" unicode="&#xfb;" 
d="M570 604v-604h-307c-188 0 -242 115 -242 252c0 111 56 252 103 352h197c-35 -95 -97 -240 -97 -339c0 -97 54 -102 133 -102h21v441h192zM397 817l96 -154h-136l-37 61l-36 -61h-133l95 154h151z" />
    <glyph glyph-name="udieresis" unicode="&#xfc;" 
d="M570 604v-604h-307c-188 0 -242 115 -242 252c0 111 56 252 103 352h197c-35 -95 -97 -240 -97 -339c0 -97 54 -102 133 -102h21v441h192zM487 817v-135h-133v135h133zM289 817v-135h-133v135h133z" />
    <glyph glyph-name="ugrave" unicode="&#xf9;" 
d="M570 604v-604h-307c-188 0 -242 115 -242 252c0 111 56 252 103 352h197c-35 -95 -97 -240 -97 -339c0 -97 54 -102 133 -102h21v441h192zM202 817h148l67 -160h-140z" />
    <glyph glyph-name="yacute" unicode="&#xfd;" horiz-adv-x="560" 
d="M588 604l-288 -812h-206l94 260l-216 552h228l87 -286h2l87 286h212zM457 817l-75 -160h-140l66 160h149z" />
    <glyph glyph-name="ydieresis" unicode="&#xff;" horiz-adv-x="560" 
d="M588 604l-288 -812h-206l94 260l-216 552h228l87 -286h2l87 286h212zM445 817v-135h-133v135h133zM247 817v-135h-133v135h133z" />
    <glyph glyph-name="zcaron" unicode="&#x17e;" horiz-adv-x="480" 
d="M65 604h414l-205 -441h193l-48 -163h-429l208 446h-181zM411 817l-96 -154h-151l-95 154h133l36 -61l37 61h136z" />
    <glyph glyph-name="Delta" unicode="&#x2206;" horiz-adv-x="905" 
d="M29 0v102l303 737h246l296 -736v-103h-845zM247 153h396l-132 327c-19 55 -50 137 -65 188h-5c-11 -38 -40 -116 -58 -174z" />
    <glyph glyph-name="Omega" unicode="&#x2126;" horiz-adv-x="996" 
d="M232 152v4c-78 55 -166 158 -166 307c0 201 169 372 433 372c273 0 428 -184 428 -369c0 -147 -80 -246 -170 -310v-4h187v-152h-393v116c94 56 170 143 170 312c0 139 -83 254 -221 254c-130 0 -226 -104 -226 -260c0 -150 73 -259 170 -306v-116h-395v152h183z" />
    <glyph glyph-name="pi" unicode="&#x3c0;" horiz-adv-x="839" 
d="M807 462h-88v-266c0 -87 6 -156 16 -196h-201c-17 24 -23 100 -23 182v280h-159c-3 -133 -34 -362 -76 -462h-201c39 126 75 339 75 462c-51 0 -95 -2 -128 -11l-21 123c32 28 107 45 235 45h588z" />
    <glyph glyph-name="Euro" unicode="&#x20ac;" 
d="M611 184l-49 -184h-34c-207 0 -366 137 -429 320h-77v88h55c-2 11 -4 22 -5 33h-50v88h48c10 152 96 288 320 288h159l49 -184h-154c-36 0 -128 0 -150 -104h184v-88h-187c1 -11 3 -22 5 -33h182v-88h-147c51 -82 146 -136 280 -136z" />
    <glyph glyph-name="estimated" unicode="&#x212e;" horiz-adv-x="1028" 
d="M988 397h-768c-3 0 -6 -2 -6 -5v-233c0 -10 4 -19 10 -26c75 -77 177 -126 290 -126c123 0 231 55 306 141h68c-85 -100 -222 -165 -375 -165c-261 0 -473 190 -473 425c0 236 212 427 473 427c263 0 475 -191 475 -427v-11zM813 427v233c0 10 -3 21 -11 28
c-74 73 -175 121 -288 121c-112 0 -214 -49 -289 -125c-7 -7 -11 -17 -11 -29v-228c0 -3 3 -8 6 -8h588c4 0 5 5 5 8z" />
    <glyph glyph-name="partialdiff" unicode="&#x2202;" horiz-adv-x="794" 
d="M133 716l-58 134c38 26 127 74 267 74c223 0 397 -173 397 -456c0 -291 -162 -482 -401 -482c-206 0 -298 168 -298 286c0 178 121 309 296 309c113 0 181 -69 203 -101h1v29c0 134 -80 261 -224 261c-89 0 -152 -34 -183 -54zM359 140h2c88 0 146 106 159 194
c-10 35 -59 98 -137 98c-84 0 -141 -74 -141 -163c0 -73 50 -129 117 -129z" />
    <glyph glyph-name="product" unicode="&#x220f;" horiz-adv-x="979" 
d="M953 653h-137v-766h-198v766h-257v-766h-198v766h-138v168h928v-168z" />
    <glyph glyph-name="summation" unicode="&#x2211;" horiz-adv-x="767" 
d="M747 -113h-720v112l309 352l-294 341v129h678v-164h-402v-4l247 -278l-273 -314v-5h455v-169z" />
    <glyph glyph-name="uni2219" unicode="&#x2219;" horiz-adv-x="300" 
d="M240 443v-184h-180v184h180z" />
    <glyph glyph-name="radical" unicode="&#x221a;" horiz-adv-x="811" 
d="M839 983l-314 -1154h-156l-204 506l-97 -40l-33 98l246 101l137 -369c11 -36 22 -72 30 -102l2 -1c6 28 14 68 24 110l223 851h142z" />
    <glyph glyph-name="infinity" unicode="&#x221e;" horiz-adv-x="978" 
d="M920 341v-2c0 -141 -102 -223 -208 -223c-66 0 -141 24 -224 138c-63 -80 -128 -138 -228 -138c-106 0 -203 85 -203 216s93 221 215 221c94 0 161 -50 224 -133c47 53 109 134 223 133c111 -1 201 -83 201 -212zM272 216h2c66 0 117 59 159 112c-48 68 -87 126 -164 126
c-63 0 -109 -48 -109 -122c0 -62 48 -116 112 -116zM708 454h-1c-70 0 -122 -72 -160 -117c72 -94 111 -121 167 -121c66 0 102 65 102 115c0 71 -42 123 -108 123z" />
    <glyph glyph-name="integral" unicode="&#x222b;" horiz-adv-x="515" 
d="M499 1007l-18 -123c-14 5 -31 9 -49 9c-28 0 -54 -12 -68 -33c-25 -33 -31 -96 -31 -190c0 -193 21 -332 21 -549c0 -105 -18 -184 -45 -232c-39 -72 -113 -100 -183 -100c-41 0 -88 9 -111 20l23 129c14 -6 35 -12 58 -12s46 7 60 24c24 29 35 75 35 172
c0 222 -22 363 -22 568c0 139 26 217 83 274c40 40 104 58 164 58c34 0 68 -8 83 -15z" />
    <glyph glyph-name="approxequal" unicode="&#x2248;" horiz-adv-x="727" 
d="M612 558l69 -69c-52 -82 -120 -128 -187 -128c-55 0 -91 17 -147 49c-35 20 -66 39 -109 39c-57 0 -94 -42 -129 -86l-69 68c40 69 120 127 202 127c62 0 101 -21 136 -42c50 -31 73 -45 112 -45c48 0 84 33 122 87zM612 316l69 -69c-51 -80 -118 -128 -188 -128
c-55 0 -93 19 -146 49c-38 22 -68 40 -109 40c-59 0 -93 -42 -129 -88l-69 70c40 68 121 126 203 126c60 0 100 -22 134 -41c39 -22 67 -46 112 -46c50 0 82 32 123 87z" />
    <glyph glyph-name="notequal" unicode="&#x2260;" horiz-adv-x="727" 
d="M541 622l-46 -102h170v-108h-215l-70 -157h285v-108h-331l-65 -143l-87 39l48 104h-169v108h214l71 157h-285v108h330l63 140z" />
    <glyph glyph-name="lessequal" unicode="&#x2264;" horiz-adv-x="727" 
d="M663 136l-598 270v117l597 269v-121l-483 -205v-3l484 -206v-121zM666 -17h-604v110h604v-110z" />
    <glyph glyph-name="greaterequal" unicode="&#x2265;" horiz-adv-x="727" 
d="M66 792l598 -270v-116l-597 -270v121l483 206v3l-484 205v121zM661 -17h-598v110h598v-110z" />
    <glyph glyph-name="lozenge" unicode="&#x25ca;" horiz-adv-x="811" 
d="M751 409l-271 -468h-154l-266 468l269 470h155zM577 405l-148 272c-8 17 -19 41 -23 58h-4c-5 -17 -15 -40 -24 -58l-146 -264l150 -274c8 -19 18 -43 21 -56h5c5 14 15 42 22 54z" />
    <glyph glyph-name="uni02C9" unicode="&#x2c9;" horiz-adv-x="400" 
d="M361 817v-158h-322v158h322z" />
    <glyph glyph-name="uni00AD" unicode="&#xad;" horiz-adv-x="320" 
d="M321 429v-158h-322v158h322z" />
    <glyph glyph-name="uni03A9" unicode="&#x3a9;" horiz-adv-x="996" 
d="M232 152v4c-78 55 -166 158 -166 307c0 201 169 372 433 372c273 0 428 -184 428 -369c0 -147 -80 -246 -170 -310v-4h187v-152h-393v116c94 56 170 143 170 312c0 139 -83 254 -221 254c-130 0 -226 -104 -226 -260c0 -150 73 -259 170 -306v-116h-395v152h183z" />
    <glyph glyph-name="uni00A0" unicode="&#xa0;" horiz-adv-x="350" 
 />
    <glyph glyph-name="afii61289" unicode="&#x2113;" horiz-adv-x="736" 
d="M624 251l84 -85c-79 -135 -198 -180 -310 -180c-145 0 -220 68 -248 176c-1 4 -1 7 -2 10c-22 -14 -40 -28 -62 -41l-54 100c37 26 77 51 112 78v259c0 229 104 331 257 331c147 0 212 -103 212 -220c0 -145 -101 -266 -273 -406l1 -32c5 -59 48 -97 107 -97
c71 0 135 52 176 107zM340 606v-165c80 80 134 170 134 240c0 54 -19 87 -62 87c-35 0 -72 -37 -72 -162z" />
    <glyph glyph-name="uni03BC" unicode="&#x3bc;" 
d="M570 604v-604h-318c9 -39 27 -77 63 -117l-150 -108c-49 51 -144 170 -144 477c0 111 56 252 103 352h197c-35 -95 -97 -240 -97 -339c0 -97 54 -102 133 -102h21v441h192z" />
    <glyph glyph-name="uni2215" unicode="&#x2215;" horiz-adv-x="249" 
d="M-63 -12h-121l495 845h121z" />
    </font>
</defs>
</svg>
